* Dettagli Torrent   globale  | Commenti (2) 


- Bushwick (2017).720p.H264.italian.English.Ac3-5.1.sub.ita.eng.MIRCrew -


Download via torrent:
Categoria bittorrent BDRip
Descrizione
Bushwick (2017).720p.H264.italian.English.Ac3-5.1.sub.ita.eng.MIRCrew


NO FOUND ONLY ORIGINAL RELEASE



My release is always in double track audio italian and Original audio
for select it use VLC or dvd player home
not use wmp

Bushwick

(2017)

Quality MIRCrew on HD 720p da 1,8 gb








Genere: action, avventura, catastrofico, fantascienza
Titolo originale: Bushwick
Paese/Anno: USA | 2017
Regia: Cary Murnion, Jonathan Milott
Sceneggiatura: Graham Reznick, Nick Damici
Fotografia: Lyle Vincent
Montaggio: Joe Hobeck



Adrian Matilla, Agneeta Thacker, Alex Breaux, Angelic Zambrana, Arturo Castro, Barthelemy Atsin, Bill Blechingberg, Brittany Snow , Christian Navarro, Daniel Garcia, Dave Bautista, Dee Morris, Devin Zamir Coleman, Frankie Zing, Guy Sparks, James Padric, Jay Hieron, Jeff Lima, Jeremie Harris, John Cashin, Justin L. Wilson, Leo Minaya, Ludovic Coutaud, Manny Alfaro, Matt Murray, Muhammad Cunningham, Myra Lucretia Taylor, Paco Lozano, Patrick M. Walsh, Quincy Chad, Todd Ryan Jones, Wayne J. Miller, Wesley Volcy



Action catastrofico che si muove tra Carpenter e Romero, Bushwick al di là di alcuni eccessi di auto-compiacimento visivo è un efficace ritratto di quel che potrebbe diventare l’America trumpiana. Alla Quinzaine.


When a Texas military force invades their Brooklyn neighborhood, 20-year-old Lucy and war veteran Stupe must depend on each other to survive.









[spoiler]
General
Unique ID                                : 240036264681023970595125782891381689822 (0xB4954D90AC9E17126D18C383C64C8DDE)
Complete name                            : Bushwick (2017).720p.h264.ita.eng.sub.ita.eng - MIRCrew\Bushwick (2017).720p.h264.ita.eng.sub.ita.eng - MIRCrew.mkv
Format                                   : Matroska
Format version                           : Version 2
File size                                : 1.77 GiB
Duration                                 : 1h 33mn
Overall bit rate                         : 2 706 Kbps
Movie name                               : MIRCrew
Encoded date                             : UTC 2018-04-23 22:23:48
Writing application                      : Lavf54.63.100
Writing library                          : Lavf54.63.100
COPYRIGHT                                : robbyrs - Il Corsaronero

Video
ID                                       : 1
Format                                   : AVC
Format/Info                              : Advanced Video Codec
Format profile                           : [email protected]
Format settings, CABAC                   : Yes
Format settings, ReFrames                : 2 frames
Codec ID                                 : V_MPEG4/ISO/AVC
Duration                                 : 1h 33mn
Bit rate                                 : 1 756 Kbps
Nominal bit rate                         : 1 850 Kbps
Width                                    : 1 280 pixels
Height                                   : 528 pixels
Display aspect ratio                     : 2.40:1
Frame rate mode                          : Variable
Frame rate                               : 24.000 fps
Color space                              : YUV
Chroma subsampling                       : 4:2:0
Bit depth                                : 8 bits
Scan type                                : Progressive
Bits/(Pixel*Frame)                       : 0.108
Stream size                              : 1.15 GiB (65%)
Writing library                          : x264 core 130 r2273
Encoding settings                        : cabac=1 / ref=2 / deblock=1:0:0 / analyse=0x1:0x131 / me=hex / subme=7 / psy=1 / psy_rd=1.00:0.00 / mixed_ref=0 / me_range=16 / chroma_me=1 / trellis=1 / 8x8dct=0 / cqm=0 / deadzone=21,11 / fast_pskip=1 / chroma_qp_offset=-2 / threads=3 / lookahead_threads=1 / sliced_threads=0 / nr=0 / decimate=1 / interlaced=0 / bluray_compat=0 / constrained_intra=0 / bframes=3 / b_pyramid=0 / b_adapt=1 / b_bias=0 / direct=3 / weightb=1 / open_gop=0 / weightp=2 / keyint=240 / keyint_min=24 / scenecut=40 / intra_refresh=0 / rc_lookahead=40 / rc=abr / mbtree=1 / bitrate=1850 / ratetol=1.0 / qcomp=0.60 / qpmin=10 / qpmax=69 / qpstep=4 / vbv_maxrate=24000 / vbv_bufsize=24000 / nal_hrd=none / ip_ratio=1.40 / aq=1:1.00
Language                                 : Italian
Default                                  : Yes
Forced                                   : No
DURATION                                 : 01:33:37.959000000
NUMBER_OF_FRAMES                         : 134831
NUMBER_OF_BYTES                          : 6984366596
_STATISTICS_WRITING_APP                  : mkvmerge v9.5.0 ('Quiet Fire') 64bit
_STATISTICS_WRITING_DATE_UTC             : 2018-04-21 09:54:59
_STATISTICS_TAGS                         : BPS DURATION NUMBER_OF_FRAMES NUMBER_OF_BYTES

Audio #1
ID                                       : 2
Format                                   : AC-3
Format/Info                              : Audio Coding 3
Mode extension                           : CM (complete main)
Codec ID                                 : A_AC3
Duration                                 : 1h 33mn
Bit rate mode                            : Constant
Bit rate                                 : 448 Kbps
Channel(s)                               : 6 channels
Channel positions                        : Front: L C R, Side: L R, LFE
Sampling rate                            : 48.0 KHz
Bit depth                                : 16 bits
Compression mode                         : Lossy
Delay relative to video                  : 1mn 5s
Stream size                              : 300 MiB (17%)
Title                                    : AC3 ITA
Language                                 : Italian
Default                                  : No
Forced                                   : No
DURATION                                 : 01:33:36.704000000
NUMBER_OF_FRAMES                         : 175522
NUMBER_OF_BYTES                          : 449336320
_STATISTICS_WRITING_APP                  : mkvmerge v9.5.0 ('Quiet Fire') 64bit
_STATISTICS_WRITING_DATE_UTC             : 2018-04-21 09:54:59
_STATISTICS_TAGS                         : BPS DURATION NUMBER_OF_FRAMES NUMBER_OF_BYTES

Audio #2
ID                                       : 3
Format                                   : AC-3
Format/Info                              : Audio Coding 3
Mode extension                           : CM (complete main)
Codec ID                                 : A_AC3
Duration                                 : 1h 33mn
Bit rate mode                            : Constant
Bit rate                                 : 448 Kbps
Channel(s)                               : 6 channels
Channel positions                        : Front: L C R, Side: L R, LFE
Sampling rate                            : 48.0 KHz
Bit depth                                : 16 bits
Compression mode                         : Lossy
Delay relative to video                  : 1mn 5s
Stream size                              : 300 MiB (17%)
Title                                    : AC3 ENG
Language                                 : English
Default                                  : No
Forced                                   : No
DURATION                                 : 01:33:36.992000000
NUMBER_OF_FRAMES                         : 175531
NUMBER_OF_BYTES                          : 449359360
_STATISTICS_WRITING_APP                  : mkvmerge v9.5.0 ('Quiet Fire') 64bit
_STATISTICS_WRITING_DATE_UTC             : 2018-04-21 09:54:59
_STATISTICS_TAGS                         : BPS DURATION NUMBER_OF_FRAMES NUMBER_OF_BYTES

Menu
00:00:00.000                             : :00:00:00.000
00:09:18.016                             : :00:09:18.016
00:28:20.032                             : :00:28:20.032
00:35:38.011                             : :00:35:38.011
00:43:56.467                             : :00:43:56.467
00:55:33.497                             : :00:55:33.497
01:05:02.732                             : :01:05:02.732
01:13:16.434                             : :01:13:16.434
01:23:32.966                             : :01:23:32.966
01:28:56.122                             : :01:28:56.122



[/spoiler]



Info: Per scaricare devi usare un client come uTorrent o Transmission
AnnounceURL
udp://tracker.coppersurfer.tk:6969/announce
Hash 0883037863dc26ca535336b4a19acc7969b29c15
Peers seeds: 316 , leech: 169
Size 1.77 GB
Completato 1417x
Aggiunto 25.04.18 - 17:04:36
Uploader   robbyrs
Votazione (Voti: 1)


Condividi questo bittorrent:


html/blog:


bbcode/forum:




Aggiungi Commento
Ultimi commenti
 gecogeco   
Grazie
26/04 21.35
  
Grazie come al solito sempre e solo il top da voi ragazzi...
26/04 00.07
Tutti commenti (2)


counter