* Dettagli Torrent   globale  | Commenti (1) 


- Bastardi insensibili (2015).720p.H264.italian.english.Ac3-5.1.sub.ita.MIRCrew -


Download via torrent:
Categoria bittorrent BDRip
Descrizione
The Heyday of the Insensitive Bastards - Bastardi insensibili (2015).720p.H264.italian.english.Ac3-5.1.sub.ita.MIRCrew



NO FOUND ONLY ORIGINAL RELEASE



My release is always in double track audio italian and Original audio
for select it use VLC or dvd player home
not use wmp

Bastardi insensibili

The Heyday of the Insensitive Bastards


(2015)

Qualità MIRCrew in HD 720p da 1,9 gb









Regia Marck Columbus, Lauren Hoekstra, Sarah Kruchowski, Ryan Moody, Simon Savelyev, Vanita Shastry, Shadae Lamar Smith, Jeremy David While, Jonathan King
Genere: Commedia
Usa
durata: 1,35 H



James Franco, Kristen Wiig, Abigail Spencer, Thomas Mann, Kate Mara, Amber Tamblyn, Natalie Portman



Il racconto di sette storie che si incrociano, esplorando la differenza tra realtà e fantasia, ricordi e storia vissuta, agonia e gioia: temi universali e sempre attuali.



Based on short stories from Robert Boswell's collection, seven vignettes explore the difference between fantasy and reality, memory and history, and the joy and agony of the human condition.









[spoiler]
General
Unique ID                                : 209667406671397990286448032782148212363 (0x9DBC79438DE3C03B8A5C281F4124968B)
Complete name                            : Bastardi insensibili - The Heyday of the Insensitive Bastards (2015).720p.h264.ita.eng.sub.ita - MIRCrew\Bastardi insensibili - The Heyday of the Insensitive Bastards (2015).720p.h264.ita.eng.sub.ita - MIRCrew.mkv
Format                                   : Matroska
Format version                           : Version 2
File size                                : 1.86 GiB
Duration                                 : 1h 35mn
Overall bit rate                         : 2 774 Kbps
Movie name                               : MIRCrew
Encoded date                             : UTC 2018-04-22 16:44:10
Writing application                      : mkvmerge v5.4.0 ('Piper') built on Mar 10 2012 13:34:39
Writing library                          : Lavf54.63.100
COPYRIGHT                                : robbyrs - Il Corsaronero

Video
ID                                       : 1
Format                                   : AVC
Format/Info                              : Advanced Video Codec
Format profile                           : [email protected]
Format settings, CABAC                   : Yes
Format settings, ReFrames                : 2 frames
Codec ID                                 : V_MPEG4/ISO/AVC
Duration                                 : 1h 35mn
Bit rate                                 : 1 850 Kbps
Width                                    : 1 280 pixels
Height                                   : 544 pixels
Display aspect ratio                     : 2.35:1
Frame rate mode                          : Variable
Frame rate                               : 24.000 fps
Color space                              : YUV
Chroma subsampling                       : 4:2:0
Bit depth                                : 8 bits
Scan type                                : Progressive
Bits/(Pixel*Frame)                       : 0.111
Stream size                              : 1.22 GiB (66%)
Writing library                          : x264 core 130 r2273
Encoding settings                        : cabac=1 / ref=2 / deblock=1:0:0 / analyse=0x1:0x131 / me=hex / subme=7 / psy=1 / psy_rd=1.00:0.00 / mixed_ref=0 / me_range=16 / chroma_me=1 / trellis=1 / 8x8dct=0 / cqm=0 / deadzone=21,11 / fast_pskip=1 / chroma_qp_offset=-2 / threads=3 / lookahead_threads=1 / sliced_threads=0 / nr=0 / decimate=1 / interlaced=0 / bluray_compat=0 / constrained_intra=0 / bframes=3 / b_pyramid=0 / b_adapt=1 / b_bias=0 / direct=3 / weightb=1 / open_gop=0 / weightp=2 / keyint=240 / keyint_min=24 / scenecut=40 / intra_refresh=0 / rc_lookahead=40 / rc=abr / mbtree=1 / bitrate=1850 / ratetol=1.0 / qcomp=0.60 / qpmin=10 / qpmax=69 / qpstep=4 / vbv_maxrate=24000 / vbv_bufsize=24000 / nal_hrd=none / ip_ratio=1.40 / aq=1:1.00
Language                                 : Italian
Default                                  : Yes
Forced                                   : No
DURATION                                 : 01:35:52.542000000
NUMBER_OF_FRAMES                         : 138061
NUMBER_OF_BYTES                          : 6138849598
_STATISTICS_WRITING_APP                  : mkvmerge v9.7.1 ('Pandemonium') 64bit
_STATISTICS_WRITING_DATE_UTC             : 2018-04-02 11:07:08
_STATISTICS_TAGS                         : BPS DURATION NUMBER_OF_FRAMES NUMBER_OF_BYTES

Audio #1
ID                                       : 2
Format                                   : AC-3
Format/Info                              : Audio Coding 3
Mode extension                           : CM (complete main)
Codec ID                                 : A_AC3
Duration                                 : 1h 35mn
Bit rate mode                            : Constant
Bit rate                                 : 448 Kbps
Channel(s)                               : 6 channels
Channel positions                        : Front: L C R, Side: L R, LFE
Sampling rate                            : 48.0 KHz
Bit depth                                : 16 bits
Compression mode                         : Lossy
Delay relative to video                  : -5ms
Stream size                              : 307 MiB (16%)
Title                                    : Ita Ac3 5.1
Language                                 : Italian
Default                                  : No
Forced                                   : No
DURATION                                 : 01:35:53.280000000
NUMBER_OF_FRAMES                         : 179790
NUMBER_OF_BYTES                          : 460262400
_STATISTICS_WRITING_APP                  : mkvmerge v9.7.1 ('Pandemonium') 64bit
_STATISTICS_WRITING_DATE_UTC             : 2018-04-02 11:07:08
_STATISTICS_TAGS                         : BPS DURATION NUMBER_OF_FRAMES NUMBER_OF_BYTES

Audio #2
ID                                       : 3
Format                                   : AC-3
Format/Info                              : Audio Coding 3
Mode extension                           : CM (complete main)
Codec ID                                 : A_AC3
Duration                                 : 1h 35mn
Bit rate mode                            : Constant
Bit rate                                 : 448 Kbps
Channel(s)                               : 6 channels
Channel positions                        : Front: L C R, Side: L R, LFE
Sampling rate                            : 48.0 KHz
Bit depth                                : 16 bits
Compression mode                         : Lossy
Delay relative to video                  : -5ms
Stream size                              : 307 MiB (16%)
Title                                    : Eng Ac3 5.1
Language                                 : English
Default                                  : No
Forced                                   : No
DURATION                                 : 01:35:53.323000000
NUMBER_OF_FRAMES                         : 539374
NUMBER_OF_BYTES                          : 1085220556
_STATISTICS_WRITING_APP                  : mkvmerge v9.7.1 ('Pandemonium') 64bit
_STATISTICS_WRITING_DATE_UTC             : 2018-04-02 11:07:08
_STATISTICS_TAGS                         : BPS DURATION NUMBER_OF_FRAMES NUMBER_OF_BYTES

Menu
00:00:00.000                             : 01)00:00:00:000
00:12:57.875                             : 02)00:12:57:875
00:23:24.916                             : 03)00:23:24:916
00:35:01.500                             : 04)00:35:01:500
00:47:45.458                             : 05)00:47:45:458
01:01:24.541                             : 06)01:01:24:541
01:10:38.083                             : 07)01:10:38:083
01:30:56.791                             : 001:30:56:791



[/spoiler]



Info: Per scaricare devi usare un client come uTorrent o Transmission
AnnounceURL
udp://tracker.coppersurfer.tk:6969/announce
Hash cde9f7896fb0fd62774c1f32f858267a638f4f29
Peers seeds: 121 , leech: 75
Size 1.86 GB
Completato 472x
Aggiunto 25.04.18 - 21:04:31
Uploader   robbyrs
Votazione (Voti: 0)


Condividi questo bittorrent:


html/blog:


bbcode/forum:




Aggiungi Commento
Ultimi commenti
  
grazie ragazzi!!!
27/04 20.15
Tutti commenti (1)


counter