* Dettagli Torrent   globale  | Commenti (0) 


- Lady Gaga - Super Bowl Halftime Show 2017 [SATRip 720p - Mpeg - Eng Ac3 5.1] -


Download via torrent:
Categoria bittorrent Musica
Descrizione
Lady Gaga - Super Bowl Halftime Show 2017 - HDTV 720p



Lady Gaga
Super Bowl LI
NRG Stadium
Houston, TX
February 5, 2017
Broadcast live on Fox TV

Lineage: HD cable > TiVo Premiere > PC via kmttg > VideoReDo > .ts file

Video:
MPEG-2
15.7 Mbps
1280x720
16:9

Audio:
AC-3
448 Kbps
48.0 KHz
6 channels

Length: 13:35

No logos!

Setlist:
01 God Bless America/This Land Is Your Land
02 Poker Face
03 Born This Way
04 Telephone
05 Just Dance
06 A Million Reasons
07 Bad Romance
08 mic drop/fireworks



General
ID                                       : 1 (0x1)
Complete name                            : D:\Downloads\Lady Gaga - Super Bowl Halftime Show 2017 - HDTV 720p\Lady Gaga Super Bowl LI 2017-02-05.ts
Format                                   : MPEG-TS
File size                                : 1.49 GiB
Duration                                 : 13 min 35 s
Overall bit rate mode                    : Variable
Overall bit rate                         : 15.7 Mb/s
Movie name                               : NFL on FOX
Law rating                               : None

Video
ID                                       : 224 (0xE0)
Menu ID                                  : 1 (0x1)
Format                                   : MPEG Video
Format version                           : Version 2
Format profile                           : [email protected]
Format settings                          : CustomMatrix / BVOP
Format settings, BVOP                    : Yes
Format settings, Matrix                  : Custom
Format settings, GOP                     : Variable
Codec ID                                 : 2
Duration                                 : 13 min 35 s
Bit rate mode                            : Variable
Bit rate                                 : 14.5 Mb/s
Maximum bit rate                         : 24.0 Mb/s
Width                                    : 1 280 pixels
Height                                   : 720 pixels
Display aspect ratio                     : 16:9
Active Format Description                : Letterbox 16:9 image
Frame rate                               : 59.940 (60000/1001) FPS
Color space                              : YUV
Chroma subsampling                       : 4:2:0
Bit depth                                : 8 bits
Scan type                                : Progressive
Compression mode                         : Lossy
Bits/(Pixel*Frame)                       : 0.262
Time code of first frame                 : 00:00:00;00
Time code source                         : Group of pictures header
GOP, Open/Closed                         : Open
GOP, Open/Closed of first frame          : Closed
Stream size                              : 1.37 GiB (92%)

Audio
ID                                       : 128 (0x80)
Menu ID                                  : 1 (0x1)
Format                                   : AC-3
Format/Info                              : Audio Coding 3
Codec ID                                 : 129
Duration                                 : 13 min 35 s
Bit rate mode                            : Constant
Bit rate                                 : 448 kb/s
Channel(s)                               : 6 channels
Channel positions                        : Front: L C R, Side: L R, LFE
Sampling rate                            : 48.0 kHz
Frame rate                               : 31.250 FPS (1536 SPF)
Bit depth                                : 16 bits
Compression mode                         : Lossy
Delay relative to video                  : 7 ms
Stream size                              : 43.6 MiB (3%)
Language                                 : English
Service kind                             : Complete Main

Text #1
ID                                       : 224 (0xE0)-CC1
Menu ID                                  : 1 (0x1)
Format                                   : EIA-608
Muxing mode                              : A/53 / DTVCC Transport
Muxing mode, more info                   : Muxed in Video #1
Duration                                 : 13 min 35 s
Bit rate mode                            : Constant
Stream size                              : 0.00 Byte (0%)
CaptionServiceName                       : CC1

Text #2
ID                                       : 224 (0xE0)-CC3
Menu ID                                  : 1 (0x1)
Format                                   : EIA-608
Muxing mode                              : A/53 / DTVCC Transport
Muxing mode, more info                   : Muxed in Video #1
Duration                                 : 13 min 35 s
Bit rate mode                            : Constant
Stream size                              : 0.00 Byte (0%)
CaptionServiceName                       : CC3

Orario di seed e Banda disponibile: sempre attiva, max 800 KB/s


Info: Per scaricare devi usare un client come uTorrent o Transmission
AnnounceURL
udp://tracker.tntvillage.scambioetico.org:2710/announce
Hash 5c8f1ad2eb44d26ff6414cdf49aa06b3a8be2183
Peers seeds: 1 , leech: 1
Size 1.49 GB
Completato 0x
Aggiunto 27.04.18 - 20:04:34
Uploader   alicerasi
Votazione (Voti: 0)


Condividi questo bittorrent:


html/blog:


bbcode/forum:




Aggiungi Commento


counter