* Dettagli Torrent   globale  | Commenti (0) 


- The Darkest Dawn (2016).720p.H264.italian.English.Ac3-5.1.sub.ita.eng.MIRCrew -


Download via torrent:
Categoria bittorrent BDRip
Descrizione
The Darkest Dawn (2016).720p.H264.italian.English.Ac3-5.1.sub.ita.eng.MIRCrew


NO FOUND ONLY ORIGINAL RELEASE



My release is always in double track audio italian and Original audio
for select it use VLC or dvd player home
not use wmp

The Darkest Dawn

(2016)

Quality MIRCrew on HD 720p da  1,4 gb








Regista: Drew Casson
Sceneggiatura: Drew Casson, Jess Cleverly
Produttori: Andy Mosse, Miles Bullough, Jess Cleverly



Drew Casson
Cowen Rosewell
Stuart Ashen (Bob)
Stuart Ashen
Bob
Mawaan Rizwan (Ricky)
Mawaan Rizwan
Ricky
Jamie Paul (Hopper)
Jamie Paul
Hopper
Tom Scarlett (Adam Martell)
Tom Scarlett
Adam Martell



Chloe vive una vita tranquilla con sua sorella maggiore Sam e i suoi due affettuosi genitori. Il film inizia con il compleanno della ragazza, la quale riceve la sua prima videocamera, tassello fondamentale per coronare il suo sogno di diventare una famosa regista. Nonostante tutto sembra procedere serenamente nella vita della famiglia Murdock, l’apocalisse (si, letteralmente “l’apocalisse”) sta per sconvolgere per sempre le loro esistenze, così come, naturalmente, quella del mondo intero.



The movie that tells the story of two teenage sisters as Britain descends into an alien apocalypse. Told through the eyes of the younger sister, the sisters' descent into a post apocalyptic hell where they must choose between humanity and brutality in the fight for survival.










[spoiler]
General
Unique ID                                : 282348172668876588182700744881356864839 (0xD46A47B143DD5CED9D1F40A1680AFD47)
Complete name                            : The Darkest Dawn (2016).720p.h264.ita.eng.sub.ita.eng - MIRCrew\The Darkest Dawn (2016).720p.h264.ita.eng.sub.ita.eng - MIRCrew.mkv
Format                                   : Matroska
Format version                           : Version 2
File size                                : 1.39 GiB
Duration                                 : 1h 15mn
Overall bit rate                         : 2 639 Kbps
Movie name                               : MIRCrew
Encoded date                             : UTC 2018-04-16 11:06:00
Writing application                      : Lavf54.63.100
Writing library                          : Lavf54.63.100
COPYRIGHT                                : robbyrs

Video
ID                                       : 1
Format                                   : AVC
Format/Info                              : Advanced Video Codec
Format profile                           : [email protected]
Format settings, CABAC                   : Yes
Format settings, ReFrames                : 2 frames
Codec ID                                 : V_MPEG4/ISO/AVC
Duration                                 : 1h 15mn
Bit rate                                 : 1 900 Kbps
Width                                    : 1 280 pixels
Height                                   : 720 pixels
Display aspect ratio                     : 16:9
Frame rate mode                          : Variable
Frame rate                               : 25.000 fps
Color space                              : YUV
Chroma subsampling                       : 4:2:0
Bit depth                                : 8 bits
Scan type                                : Progressive
Bits/(Pixel*Frame)                       : 0.082
Stream size                              : 982 MiB (69%)
Title                                    : 1080p.WEB
Writing library                          : x264 core 130 r2273
Encoding settings                        : cabac=1 / ref=2 / deblock=1:0:0 / analyse=0x1:0x131 / me=hex / subme=7 / psy=1 / psy_rd=1.00:0.00 / mixed_ref=0 / me_range=16 / chroma_me=1 / trellis=1 / 8x8dct=0 / cqm=0 / deadzone=21,11 / fast_pskip=1 / chroma_qp_offset=-2 / threads=3 / lookahead_threads=1 / sliced_threads=0 / nr=0 / decimate=1 / interlaced=0 / bluray_compat=0 / constrained_intra=0 / bframes=3 / b_pyramid=0 / b_adapt=1 / b_bias=0 / direct=3 / weightb=1 / open_gop=0 / weightp=2 / keyint=250 / keyint_min=25 / scenecut=40 / intra_refresh=0 / rc_lookahead=40 / rc=abr / mbtree=1 / bitrate=1900 / ratetol=1.0 / qcomp=0.60 / qpmin=10 / qpmax=69 / qpstep=4 / vbv_maxrate=24000 / vbv_bufsize=24000 / nal_hrd=none / ip_ratio=1.40 / aq=1:1.00
Language                                 : Italian
Default                                  : Yes
Forced                                   : No
DURATION                                 : 01:15:28.360000000
NUMBER_OF_FRAMES                         : 113209
NUMBER_OF_BYTES                          : 4013669895
_STATISTICS_WRITING_APP                  : mkvmerge v22.0.0 ('At The End Of The World') 64-bit
_STATISTICS_WRITING_DATE_UTC             : 2018-04-16 11:06:00
_STATISTICS_TAGS                         : BPS DURATION NUMBER_OF_FRAMES NUMBER_OF_BYTES

Audio #1
ID                                       : 2
Format                                   : AC-3
Format/Info                              : Audio Coding 3
Mode extension                           : CM (complete main)
Codec ID                                 : A_AC3
Duration                                 : 1h 15mn
Bit rate mode                            : Constant
Bit rate                                 : 384 Kbps
Channel(s)                               : 6 channels
Channel positions                        : Front: L C R, Side: L R, LFE
Sampling rate                            : 48.0 KHz
Bit depth                                : 16 bits
Compression mode                         : Lossy
Delay relative to video                  : 1mn 5s
Stream size                              : 207 MiB (15%)
Language                                 : Italian
Default                                  : Yes
Forced                                   : Yes
DURATION                                 : 01:15:28.544000000
NUMBER_OF_FRAMES                         : 141517
NUMBER_OF_BYTES                          : 217370112
_STATISTICS_WRITING_APP                  : mkvmerge v22.0.0 ('At The End Of The World') 64-bit
_STATISTICS_WRITING_DATE_UTC             : 2018-04-16 11:06:00
_STATISTICS_TAGS                         : BPS DURATION NUMBER_OF_FRAMES NUMBER_OF_BYTES

Audio #2
ID                                       : 3
Format                                   : AC-3
Format/Info                              : Audio Coding 3
Mode extension                           : CM (complete main)
Codec ID                                 : A_AC3
Duration                                 : 1h 15mn
Bit rate mode                            : Constant
Bit rate                                 : 384 Kbps
Channel(s)                               : 6 channels
Channel positions                        : Front: L C R, Side: L R, LFE
Sampling rate                            : 48.0 KHz
Bit depth                                : 16 bits
Compression mode                         : Lossy
Delay relative to video                  : 1mn 5s
Stream size                              : 207 MiB (15%)
Language                                 : English
Default                                  : No
Forced                                   : No
DURATION                                 : 01:15:28.544000000
NUMBER_OF_FRAMES                         : 141517
NUMBER_OF_BYTES                          : 217370112
_STATISTICS_WRITING_APP                  : mkvmerge v22.0.0 ('At The End Of The World') 64-bit
_STATISTICS_WRITING_DATE_UTC             : 2018-04-16 11:06:00
_STATISTICS_TAGS                         : BPS DURATION NUMBER_OF_FRAMES NUMBER_OF_BYTES




[/spoiler]



Info: Per scaricare devi usare un client come uTorrent o Transmission
AnnounceURL
udp://tracker.coppersurfer.tk:6969/announce
Hash a146dfbfb3308f866ffe85d9f5463b5b28de4f92
Peers seeds: 8 , leech: 65
Size 1.39 GB
Completato 11x
Aggiunto 28.04.18 - 12:04:20
Uploader   robbyrs
Votazione (Voti: 0)


Condividi questo bittorrent:


html/blog:


bbcode/forum:




Aggiungi Commento


counter